#TITLE:Mythology;
#SUBTITLE:OLD STEPS;
#ARTIST:???;
#TITLETRANSLIT:;
#SUBTITLETRANSLIT:;
#ARTISTTRANSLIT:;
#CREDIT:Roxor Games;
#BANNER:mythology-banner.png;
#BACKGROUND:mythology.png;
#LYRICSPATH:;
#CDTITLE:;
#MUSIC:Mythology.mp3;
#MUSICBYTES:0;
#MUSICLENGTH:123.305;
#OFFSET:-0.030;
#SAMPLESTART:44.670;
#SAMPLELENGTH:12.000;
#SELECTABLE:YES;
#BPMS:0.000=138.000;
#STOPS:;
#BGCHANGES:0.100=mythology-gforce.mpg=1.000=0=0=1;
#FIRSTBEAT:16.000;
#LASTBEAT:284.000;

//---------------dance-single - Single Easy----------------
#NOTES:
     dance-single:
     Single Easy:
     easy:
     4:
     0.266,0.345,0.195,0.097,0.000:




0000
0000
0000
0000
,              
0000
0000
0000
0000
,              
0000
0000
0000
0000
,              
0000
0000
0000
0000
,              
0100
0000
0001
0000
,              
0100
0000
0010
0000
,              
0001
0000
1000
0000
,              
0100
0000
0001
0000
,              
0010
0000
0100
0000
,               
0001
0000
0010
0000
,               
1000
0000
0010
0000
,               
0001
0000
0100
0000
,               
0010
0000
0001
0000
,               
0010
0000
1000
0000
,               
0010
0000
0100
0000
,               
0010
0000
0001
0000
,               
0001
0010
0100
0010
,               
0100
1000
0100
0010
,               
0001
0100
0010
0001
,               
0010
1000
0100
0010
,               
0001
0001
0100
1000
,               
0010
0001
1000
0100
,               
0010
0100
0001
1000
,               
1000
0010
0001
0100
,               
1000
0010
0100
1000
,               
1000
0010
0100
0001
,               
0001
1000
0100
0010
,               
0100
0001
0010
1000
,               
0100
0010
0100
0001
,               
1000
0100
1000
0100
,               
0010
0001
0010
1000
,               
0001
0000
0100
0010
,               
1001
0000
0010
0001
,               
1001
0000
0010
1000
,               
1001
0000
1000
0001
,               
1001
0000
0001
0100
,               
1001
0000
1000
0100
,               
1001
0000
0010
0001
,               
1001
0000
0100
0010
,               
1001
0000
0110
0110
,               
1001
0000
1000
0100
,               
1010
0000
0001
0010
,               
0101
0000
0010
1000
,               
1010
0000
0100
0001
,               
0101
0000
0001
1000
,               
1001
0000
1000
0001
,               
1001
0000
0100
0010
,               
0110
0000
0100
0010
,               
0110
0000
0010
0100
,               
1000
0010
0001
0100
,               
0010
1000
1000
0100
,               
0010
0001
0010
0100
,               
0010
0100
1000
0100
,               
0010
0001
0001
0100
,               
1000
0100
0010
0100
,               
1000
0001
0010
0100
,               
0100
0000
1001
0100
,               
0010
0000
0101
0010
,               
1000
0000
1010
0100
,               
0010
0000
0101
0010
,               
0002
0000
0003
0100
,               
0020
0000
0000
0030
,               
0200
0000
0300
1000
,               
0002
0000
0000
0003
,               
0020
0000
0030
0100
,               
0002
0000
0000
0003
,               
2000
0000
3000
0100
,               
0020
0000
0000
0030
,               
2000
0000
3000
0010
,               
0200
0000
0000
0300
,               
2002
0000
0000
0000
,               
3003
0000
0000
0000;

//---------------dance-single - Single Medium----------------
#NOTES:
     dance-single:
     Single Medium:
     medium:
     6:
     0.312,0.345,0.316,0.097,0.000:






              
0000
0000
0000
0000
,              
0000
0000
0000
0000
,              
0000
0000
0000
0000
,              
0000
0000
0000
0000
,              
0100
0000
0001
0000
,              
0100
0000
0010
0001
,              
0001
0000
1000
0000
,              
0100
0000
0001
0000
,              
0010
0000
0100
0000
,               
0001
0000
0010
1000
,               
1000
0000
0010
0000
,               
0001
0000
0100
0000
,               
0010
0000
0001
0000
,               
0010
0000
1000
0010
,               
0010
0000
0100
0000
,               
0010
0000
0001
0000
,               
0001
0010
1100
0010
,               
0100
1000
0110
0010
,               
0001
0100
1010
0001
,               
0010
1000
0110
0010
,               
0001
0001
0101
1000
,               
0010
0001
1010
0100
,               
0010
0100
1001
1000
,               
1000
0010
0101
0100
,               
1000
0010
1100
1000
,               
1000
0010
0101
0001
,               
0001
1000
1100
0010
,               
0100
0001
0110
1000
,               
0100
0010
0101
0001
,               
1000
0100
1010
0100
,               
0010
0001
1010
1000
,               
0001
0010
1100
0010
,               
0001
1000
0110
0001
,               
1000
0100
1010
1000
,               
0001
0010
1100
0001
,               
1000
0100
0011
0100
,               
0001
0010
1001
0100
,               
0001
0100
1010
0001
,               
1000
0010
0101
0010
,               
1000
0000
0110
0110
,               
1001
0010
1000
0100
,               
1010
0100
0001
0010
,               
0101
0010
0010
1000
,               
1010
0001
0100
0001
,               
0101
0100
0001
1000
,               
1001
0010
1000
0001
,               
1001
0100
0100
0010
,               
0110
1000
0100
0010
,               
0110
0001
0010
0100
,               
1000
0010
0001
0100
,               
0010
1000
1000
0100
,               
0010
0001
0010
0100
,               
0010
0100
1000
0100
,               
0010
0001
0001
0100
,               
1000
0100
0010
0100
,               
1000
0001
0010
0100
,               
0100
0010
1001
0100
,               
0010
1000
0101
0010
,               
1000
0100
1010
0100
,               
0010
1000
0101
0010
,               
0002
0000
0003
0100
,               
0020
0000
0000
0030
,               
0200
0000
0300
1000
,               
0002
0000
0000
0003
,               
0020
0000
0030
0100
,               
0002
0000
0000
0003
,               
2000
0000
3000
0100
,               
0020
0000
0000
0030
,               
2000
0000
3000
0010
,               
0200
0000
0000
0300
,               
2002
0000
0000
0000
,               
3003
0000
0000
0000;

//---------------dance-single - Single Hard----------------
#NOTES:
     dance-single:
     Single Hard:
     hard:
     6:
     0.425,0.461,0.770,0.178,0.000:

              
0000
0000
0000
0000
,              
0000
0000
0000
0000
,              
0000
0000
0000
0000
,              
0000
0000
0000
0000
,              
0100
1000
0001
0010
,              
0100
1000
0010
0001
,              
0101
0010
1000
0001
,              
0010
0100
0001
1000
,              
0010
0001
0100
0010
,               
0001
1000
0010
1000
,               
1010
0100
0010
0100
,               
0001
1000
0100
0001
,               
0010
0100
0001
0100
,               
0010
0001
1000
0010
,               
1010
0001
0100
1000
,               
0010
0100
0001
0010
,               
0001
0010
1100
0010
,               
0110
1000
0110
0010
,               
1001
0100
1010
0001
,               
0110
1000
0110
0010
,               
0101
0001
0101
1000
,               
0011
0001
1010
0100
,               
1010
0100
1001
1000
,               
1100
0010
0101
0100
,               
1001
0010
1100
1000
,               
1100
0010
0101
0001
,               
0011
1000
1100
0010
,               
0101
0001
0110
1000
,               
1100
0010
0101
0001
,               
1100
0100
1010
0100
,               
0011
0001
1010
1000
,               
0101
0010
1100
0010
,               
0101
1000
0110
0001
,               
1001
0100
1010
1000
,               
0101
0010
1100
0001
,               
1100
0100
0011
0100
,               
1001
0010
1001
0100
,               
0011
0100
1010
0001
,               
1100
0010
0101
0010
,               
1100
0001
0110
0110
,               
1001
0010
1000
0101
,               
1010
0100
0001
0110
,               
0101
0010
0010
1001
,               
1010
0001
0100
1001
,               
0101
0100
0001
1010
,               
1001
0010
1000
0101
,               
1001
0100
0100
0011
,               
0110
1000
0100
1010
,               
0110
0001
0010
0110
,               
1001
0010
0001
1100
,               
0110
1000
1000
0110
,               
1010
0001
0010
0101
,               
0110
0100
1000
0110
,               
1010
0001
0001
0110
,               
1001
0100
0010
0101
,               
1010
0001
0010
0110
,               
1100
0010
1001
0110
,               
0011
1000
0101
0110
,               
1100
0100
1010
0110
,               
1010
1000
0101
0010
,               
0002
0023
0230
0300
,               
0010
2000
0000
0000
0000
0000
0000
0000
,               
3200
0320
2030
3000
,               
0001
0200
0000
0000
0000
0000
0000
0000
,               
0320
2030
3200
0300
,               
0001
0200
0000
0000
0000
0000
0000
0000
,               
2300
3020
0230
0300
,               
0010
0002
0000
0000
0000
0000
0000
0000
,               
2003
3200
0320
0030
,               
0100
0020
0000
0000
0000
0000
0000
0030
,               
2002
0000
0000
0000
,               
3003
0000
0000
0000;

//---------------dance-double - Double Medium----------------
#NOTES:
     dance-double:
     Double Medium:
     medium:
     4:
     0.272,0.345,0.219,0.122,0.000:







              
00000000
00000000
00000000
00000000
,              
00000000
00000000
00000000
00000000
,              
00000000
00000000
00000000
00000000
,              
00000000
00000000
00000000
00000000
,              
00100000
00000000
00000100
00000000
,              
00010000
00000000
00001000
00000000
,              
00000100
00000000
00100000
00000000
,              
00010000
00000000
00000100
00000000
,              
00001000
00000000
00001000
00000000
,               
00000010
00000000
00000100
00000000
,               
00010000
00000000
00000100
00000000
,               
00000010
00000000
00001000
00000000
,               
00000100
00000000
00000001
00000000
,               
00000010
00000000
00001000
00000000
,               
00000010
00000000
00000100
00000000
,               
00000010
00000000
00000001
00000000
,               
00000001
00000100
00001000
00000100
,               
00001000
00010000
00001000
00000100
,               
00000010
00001000
00000100
00000010
,               
00000100
00010000
00001000
00000100
,               
00000010
00000100
00010000
00100000
,               
00001000
00000100
00100000
00010000
,               
00001000
00010000
00000100
00100000
,               
00100000
00001000
00000100
00010000
,               
00100000
00010000
00100000
01000000
,               
01000000
00010000
00100000
00001000
,               
00001000
01000000
00100000
00010000
,               
00100000
00001000
00010000
01000000
,               
00100000
00100000
01000000
00010000
,               
10000000
01000000
10000000
01000000
,               
00100000
00010000
00100000
10000000
,               
00010000
00000000
01000000
00100000
,               
10010000
00000000
00010000
00001000
,               
01001000
00000000
00010000
01000000
,               
01001000
00000000
01000000
00001000
,               
01001000
00000000
00001000
00100000
,               
01001000
00000000
00100000
00010000
,               
00100100
00000000
00001000
00000100
,               
00100100
00000000
00010000
00001000
,               
00100100
00000000
00011000
00011000
,               
00100100
00000000
00010000
00001000
,               
00010100
00000000
00000010
00000100
,               
00001010
00000000
00000100
00010000
,               
00010100
00000000
00001000
00000010
,               
00001010
00000000
00000001
00001000
,               
00001001
00000000
00001000
00000001
,               
00001001
00000000
00000100
00000010
,               
00000110
00000000
00000100
00000010
,               
00000110
00000000
00000100
00001000
,               
00010000
00000100
00000010
00001000
,               
00000100
00010000
00010000
00001000
,               
00000100
00000010
00000100
00001000
,               
00000100
00010000
00100000
00010000
,               
00001000
00000100
00000100
00010000
,               
00100000
00010000
00001000
00010000
,               
00100000
00000100
00001000
00010000
,               
00010000
00000000
01001000
00100000
,               
00010000
00000000
00101000
00010000
,               
01000000
00000000
01010000
00100000
,               
00010000
00000000
00101000
00010000
,               
00022000
00000000
00033000
01000000
,               
00200000
00000000
00000000
00300000
,               
02000000
00000000
03000000
10000000
,               
00020000
00000000
00000000
00030000
,               
00220000
00000000
00000000
00330000
,               
00002000
00000000
00000000
00003000
,               
02000000
00000000
03000000
00100000
,               
00020000
00000000
00000000
00030000
,               
02200000
00000000
03300000
00001000
,               
00020000
00000000
00000000
00030000
,               
00200200
00000000
00000000
00000000
,               
00300300
00000000
00000000
00000000;

//---------------dance-solo - Solo Medium----------------
#NOTES:
     dance-solo:
     Solo Medium:
     medium:
     4:
     0.266,0.345,0.195,0.097,0.012:







              
000000
000000
000000
000000
,              
000000
000000
000000
000000
,              
000000
000000
000000
000000
,              
000000
000000
000000
000000
,              
001000
000000
000001
000000
,              
000100
000000
000010
000000
,              
000001
000000
001000
000000
,              
000100
000000
000001
000000
,              
000010
000000
001000
000000
,               
000010
000000
000100
000000
,               
010000
000000
000100
000000
,               
000010
000000
001000
000000
,               
000100
000000
000100
000000
,               
001000
000000
100000
000000
,               
001000
000000
010000
000000
,               
001000
000000
000100
000000
,               
000100
000100
001000
000100
,               
001000
010000
001000
000100
,               
000010
001000
000100
000010
,               
000100
010000
001000
000100
,               
000010
000001
000100
001000
,               
000010
000001
001000
000100
,               
000010
000100
000001
001000
,               
001000
000010
000001
000100
,               
001000
000100
001000
010000
,               
010000
000100
001000
000010
,               
000010
010000
001000
000100
,               
001000
000010
000100
010000
,               
001000
001000
010000
000100
,               
100000
010000
100000
010000
,               
001000
000100
001000
100000
,               
000100
000000
010000
001000
,               
100100
000000
000100
000010
,               
010010
000000
000100
010000
,               
010010
000000
010000
000010
,               
010010
000000
000010
001000
,               
010010
000000
001000
000100
,               
001001
000000
000010
000001
,               
001001
000000
000100
000010
,               
001001
000000
000110
000110
,               
001001
000000
010000
001000
,               
010100
000000
000010
000100
,               
001010
000000
000100
010000
,               
010100
000000
001000
000010
,               
001010
000000
000100
100000
,               
100100
000000
100000
000100
,               
100100
000000
010000
001000
,               
011000
000000
010000
001000
,               
011000
000000
000100
001000
,               
010000
000100
000010
001000
,               
000100
010000
010000
001000
,               
000100
000010
000100
001000
,               
000100
000100
001000
000100
,               
000010
000001
000001
000100
,               
001000
000100
000010
000100
,               
001000
000001
000010
000100
,               
000100
000000
010010
001000
,               
000100
000000
001010
000100
,               
010000
000000
010100
001000
,               
000100
000000
001010
000100
,               
000000
000200
000000
000000
000000
000000
000000
000000
000000
000000
000000
000000
000000
000000
000000
000000
000000
000000
000000
000000
000000
000000
000000
000000
000300
000000
000000
000000
000000
000000
000000
000000
000000
000000
000000
000000
010000
000000
000000
000000
000000
000000
000000
000000
000000
000000
000000
000000
,               
002000
000000
000000
003000
,               
020000
000000
030000
100000
,               
000200
000000
000000
000300
,               
000000
000200
000000
000000
000000
000000
000000
000000
000000
000000
000000
000000
000000
000000
000000
000000
000000
000000
000000
000000
000000
000000
000000
000000
000300
000000
000000
000000
000000
000000
000000
000000
000000
000000
000000
000000
001000
000000
000000
000000
000000
000000
000000
000000
000000
000000
000000
000000
,               
000020
000000
000000
000030
,               
020000
000000
030000
001000
,               
000200
000000
000000
000300
,               
000000
002000
000000
000000
000000
000000
000000
000000
000000
000000
000000
000000
000000
000000
000000
000000
000000
000000
000000
000000
000000
000000
000000
000000
003000
000000
000000
000000
000000
000000
000000
000000
000000
000000
000000
000000
000010
000000
000000
000000
000000
000000
000000
000000
000000
000000
000000
000000
,               
000200
000000
000000
000300
,               
002002
000000
000000
000000
,               
003003
000000
000000
000000;
